The Ledge

Go Back   The Ledge > Main Forums > Rumours
User Name
Password
Register FAQ Members List Calendar Mark Forums Read


Make the Ads Go Away! Click here.
Reply
 
Thread Tools Display Modes
  #1  
Old 01-23-2021, 04:59 PM
estranged4life's Avatar
estranged4life estranged4life is offline
Addicted Ledgie
 
Join Date: Jun 2001
Location: Mannford, OK
Posts: 13,905
Exclamation Fleetwood Mac 2009-03-01 AUD DVD (3xDVD5) - Mellon Arena, Pittsburgh, PA

http://www.dimeadozen.org/torrents-d....php?id=699797

Fleetwood Mac
Mellon Arena
Pittsburgh, PA
March 1, 2009
Audience Video Master
3xDVD5
Tour: Unleashed Tour 2009

DISC 1

01. Monday Morning
02. The Chain
03. Dreams
04. I Know I'm Not Wrong
05. Gypsy
06. Go Insane (Full Band)
07. Rhiannon
08. Second Hand News
09. Tusk
10. Sara
11. Big Love (LB Alone)

DISC 2

12. Landslide
13. Never Going Back Again
14. Storms (Sounded awesome)
15. Say You Love Me (Stevie & Lindsey trading versus)
16. Gold Dust Woman
17. Oh Well
18. I'm So Afraid (Different Arrangement)
19. Stand Back
20. Go Your Own Way

DISC 3

Encore:

21. World Turning (Mick Drum Solo behind drum kit)/Band Intro
22. Don't Stop
23. Silver Springs

Lineup:
Lindsey Buckingham: guitar, vocals
Stevie Nicks: vocals
Mick Fleetwood: drums
John McVie: bass
Brett Tuggle: piano
Neale Heywood: guitar
Sharon Celani: background vocals
Jana Andeson: background vocals
Lori Nicks: background vocals


General
Complete name : Disk 1/VIDEO_TS/VTS_01_2.VOB
Format : MPEG-PS
File size : 1 024 MiB
Duration : 14 min 50 s
Overall bit rate mode : Constant
Overall bit rate : 9 647 kb/s

Video
ID : 224 (0xE0)
Format : MPEG Video
Format version : Version 2
Format profile : Main@Main
Format settings : BVOP
Format settings, BVOP : Yes
Format settings, Matrix : Default
Format settings, GOP : M=3, N=15
Format settings, picture structure : Frame
Duration : 14 min 50 s
Bit rate mode : Constant
Bit rate : 9 199 kb/s
Maximum bit rate : 9 800 kb/s
Width : 720 pixels
Height : 480 pixels
Display aspect ratio : 4:3
Frame rate : 29.970 (30000/1001) FPS
Standard : NTSC
Color space : YUV
Chroma subsampling : 4:2:0
Bit depth : 8 bits
Scan type : Interlaced
Scan order : Top Field First
Compression mode : Lossy
Bits/(Pixel*Frame) : 0.888
Time code of first frame : 00:14:50:00
Time code source : Group of pictures header
GOP, Open/Closed : Open
Stream size : 976 MiB (95%)
Color primaries : BT.601 NTSC
Transfer characteristics : BT.601
Matrix coefficients : BT.601

Audio
ID : 189 (0xBD)-128 (0x80)
Format : AC-3
Format/Info : Audio Coding 3
Commercial name : Dolby Digital
Muxing mode : DVD-Video
Duration : 14 min 50 s
Bit rate mode : Constant
Bit rate : 256 kb/s
Channel(s) : 2 channels
Channel layout : L R
Sampling rate : 48.0 kHz
Frame rate : 31.250 FPS (1536 SPF)
Compression mode : Lossy
Delay relative to video : -62 ms
Stream size : 27.2 MiB (3%)
Service kind : Complete Main
__________________

"To acknowledge death is to accept freedom and responsibility."

"Fleetwood Mac and its fans remind me of a toilet plunger...keep bringing up old sh*t..."
Reply With Quote
.
  #2  
Old 01-24-2021, 01:15 AM
ricohv ricohv is offline
Addicted Ledgie
 
Join Date: Oct 2001
Location: Seattle, WA
Posts: 920
Default

Thank you!
Reply With Quote
Reply

Thread Tools
Display Modes

Posting Rules
You may not post new threads
You may not post replies
You may not post attachments
You may not edit your posts

BB code is On
Smilies are On
[IMG] code is On
HTML code is On

Forum Jump

ROY ROGERS SMILEY BURNETTE BILLY THE KID RETURNS RE1948 11x14" LOBBY CARD
$65.0
ROY ROGERS SMILEY BURNETTE BILLY THE KID RETURNS  RE1948 11x14ROY ROGERS SMILEY BURNETTE BILLY THE KID RETURNS RE1948 11x14" LOBBY CARD #1301
$65.0
ROY ROGERS SMILEY BURNETTE BILLY THE KID RETURNS  RE1948 11x14ROY ROGERS SMILEY BURNETTE BILLY THE KID RETURNS RE1948 11x14" LOBBY CARD #1303
$65.0
ROY ROGERS SMILEY BURNETTE BILLY THE KID RETURNS  RE1948 11x141920 Elizabeth Burnett & Billy Peasley Fill Salvation Army Barrel Press Photo
$25.88
1920 Elizabeth Burnett & Billy Peasley Fill Salvation Army Barrel Press Photo pictureBilly Burnette Vintage 80's Pin Pinback Badge Rockabilly
$22.5
Billy Burnette Vintage 80's Pin Pinback Badge Rockabilly picture



All times are GMT -5. The time now is 08:53 AM.


Powered by vBulletin® Version 3.8.11
Copyright ©2000 - 2021, vBulletin Solutions Inc.
© 1995-2003 Martin and Lisa Adelson, All Rights Reserved